<?xml version="1.0" standalone="no"?>
<!DOCTYPE svg PUBLIC "-//W3C//DTD SVG 1.1//EN" "http://www.w3.org/Graphics/SVG/1.1/DTD/svg11.dtd" >
<svg xmlns="http://www.w3.org/2000/svg">
<metadata>Generated by IcoMoon</metadata>
<defs>
<font id="icomoon" horiz-adv-x="1024">
<font-face units-per-em="1024" ascent="960" descent="-64" />
<missing-glyph horiz-adv-x="1024" />
<glyph unicode="&#x20;" horiz-adv-x="512" d="" />
<glyph unicode="&#xe900;" glyph-name="fa-trash" d="M583.564 864c53.983 0 97.745-42.319 97.745-94.523l-0.042-31.48 162.951-0.028c17.994 0 32.582-14.106 32.582-31.508s-14.587-31.508-32.582-31.508l-32.596 0.016 0.014-472.631c0-87.006-72.937-157.538-162.909-157.538h-260.655c-89.972 0-162.909 70.532-162.909 157.538l-0.037 472.631-32.545-0.016c-17.994 0-32.582 14.106-32.582 31.508s14.587 31.508 32.582 31.508l162.9 0.028 0.009 31.48c0 52.204 43.762 94.523 97.745 94.523h130.327zM746.445 674.97h-456.141l0.023-472.631c0-52.204 43.762-94.523 97.745-94.523h260.655c53.983 0 97.745 42.319 97.745 94.523l-0.028 472.631zM453.236 517.415c17.994 0 32.582-14.106 32.582-31.508v-220.554c0-17.401-14.587-31.508-32.582-31.508s-32.582 14.106-32.582 31.508v220.554c0 17.401 14.587 31.508 32.582 31.508zM583.564 517.415c17.994 0 32.582-14.106 32.582-31.508v-220.554c0-17.401-14.587-31.508-32.582-31.508s-32.582 14.106-32.582 31.508v220.554c0 17.401 14.587 31.508 32.582 31.508zM583.564 800.985h-130.327c-17.994 0-32.582-14.106-32.582-31.508v-31.508h195.491v31.508c0 17.401-14.587 31.508-32.582 31.508z" />
<glyph unicode="&#xe901;" glyph-name="fa-arrows" d="M482.368 415.552h-390.848l100.864-119.36c5.065-5.461 8.172-12.8 8.172-20.864s-3.107-15.403-8.19-20.884l0.018 0.020c-4.915-5.317-11.926-8.635-19.712-8.635s-14.797 3.318-19.696 8.617l-0.016 0.018-144.896 172.672c-5.002 5.499-8.065 12.84-8.065 20.896s3.063 15.397 8.087 20.921l-0.023-0.025 144.832 166.592c10.88 11.52 28.544 11.52 39.424 0 5.082-5.465 8.202-12.816 8.202-20.896s-3.119-15.431-8.219-20.915l0.017 0.019-100.8-119.168h390.912v203.84l0.192 2.88v185.728l-119.36-100.864c-5.465-5.082-12.816-8.202-20.896-8.202s-15.431 3.119-20.915 8.219l0.019-0.017c-5.338 4.917-8.67 11.942-8.67 19.744s3.332 14.827 8.651 19.727l0.019 0.017 172.736 144.768c5.495 4.984 12.823 8.036 20.864 8.036s15.369-3.051 20.89-8.059l-0.026 0.023 166.592-144.768c11.52-10.88 11.52-28.608 0-39.488-5.465-5.082-12.816-8.202-20.896-8.202s-15.431 3.119-20.915 8.219l0.019-0.017-119.104 100.864v-392.576h390.912l-100.864 119.296c-5.082 5.465-8.202 12.816-8.202 20.896s3.119 15.431 8.219 20.915l-0.017-0.019c10.88 11.52 28.544 11.52 39.424 0l144.832-172.736c4.984-5.495 8.036-12.823 8.036-20.864s-3.051-15.369-8.059-20.89l0.023 0.026-144.832-166.592c-4.915-5.317-11.926-8.635-19.712-8.635s-14.797 3.318-19.696 8.617l-0.016 0.018c-5.065 5.461-8.172 12.8-8.172 20.864s3.107 15.403 8.19 20.884l-0.018-0.020 100.8 119.168h-391.040v-385.6l119.232 100.864c5.465 5.082 12.816 8.202 20.896 8.202s15.431-3.119 20.915-8.219l-0.019 0.017c11.52-10.88 11.52-28.544 0-39.488l-172.736-144.832c-5.495-4.984-12.823-8.036-20.864-8.036s-15.369 3.051-20.89 8.059l0.026-0.023-166.592 144.832c-5.338 4.917-8.67 11.942-8.67 19.744s3.332 14.827 8.651 19.727l0.019 0.017c5.465 5.082 12.816 8.202 20.896 8.202s15.431-3.119 20.915-8.219l-0.019 0.017 119.104-100.864v385.792z" />
<glyph unicode="&#xe902;" glyph-name="fa-edit" d="M670.157 839.987c10.925 10.887 25.999 17.619 42.644 17.619 12.873 0 24.805-4.026 34.607-10.887l-0.195 0.129 2.253-1.741 6.093-5.274 148.48-148.838c23.45-23.552 23.398-61.594-0.102-85.146l-523.981-523.93c-9.109-9.098-21.109-15.302-34.504-17.117l-0.312-0.035-197.222-26.010c-1.586-0.221-3.418-0.348-5.279-0.348-22.226 0-40.243 18.017-40.243 40.243 0 1.765 0.114 3.503 0.334 5.208l-0.021-0.201 25.498 199.168c1.69 13.312 7.782 25.6 17.254 35.021zM564.531 649.882l-376.474-374.682-22.17-173.261 171.315 22.528 376.474 376.525-149.146 148.89zM712.653 797.235l-101.837-101.274 149.043-148.736 101.325 101.222-146.586 147.098-2.048 1.69z" />
<glyph unicode="&#xe903;" glyph-name="fa-times" d="M594.534 448l412.365-412.467c9.303-10.299 14.995-24.014 14.995-39.059 0-32.236-26.132-58.368-58.368-58.368-15.045 0-28.76 5.692-39.11 15.040l0.051-0.045-412.467 412.365-412.467-412.365c-10.299-9.303-24.014-14.995-39.059-14.995-32.236 0-58.368 26.132-58.368 58.368 0 15.045 5.692 28.76 15.040 39.11l-0.045-0.051 412.365 412.467-412.365 412.467c-9.303 10.299-14.995 24.014-14.995 39.059 0 32.236 26.132 58.368 58.368 58.368 15.045 0 28.76-5.692 39.11-15.040l-0.051 0.045 412.467-412.365 412.467 412.365c10.299 9.303 24.014 14.995 39.059 14.995 32.236 0 58.368-26.132 58.368-58.368 0-15.045-5.692-28.76-15.040-39.11l0.045 0.051-412.365-412.467z" />
<glyph unicode="&#xe904;" glyph-name="fa-reupload" horiz-adv-x="4096" d="M3584 192c141.384 0 256 114.616 256 256s-114.616 256-256 256c-141.384 0-256-114.616-256-256s114.616-256 256-256zM3584-64c-282.77 0-512 229.23-512 512s229.23 512 512 512c282.77 0 512-229.23 512-512s-229.23-512-512-512zM512 192c141.384 0 256 114.616 256 256s-114.616 256-256 256c-141.384 0-256-114.616-256-256s114.616-256 256-256zM512-64c-282.77 0-512 229.23-512 512s229.23 512 512 512c282.77 0 512-229.23 512-512s-229.23-512-512-512zM2048 192c141.384 0 256 114.616 256 256s-114.616 256-256 256c-141.384 0-256-114.616-256-256s114.616-256 256-256zM2048-64c-282.77 0-512 229.23-512 512s229.23 512 512 512c282.77 0 512-229.23 512-512s-229.23-512-512-512z" />
<glyph unicode="&#xe905;" glyph-name="fa-download" horiz-adv-x="1152" d="M155.604 69.236c-2.106 1.563-2.106 1.563-4.213 3.185-16.801 13.053-31.001 41.081-40.933 79.545-5.87 22.733-9.872 47.415-12.297 72.147-1.456 14.841-2.053 26.262-2.165 32.463l-63.99-1.152c0.14-7.803 0.825-20.89 2.46-37.558 2.725-27.785 7.238-55.619 14.025-81.901 13.15-50.924 33.149-90.396 63.635-114.083 2.78-2.14 2.78-2.14 5.563-4.205 52.037-38.268 105.16-50.639 145.748-49.573 0.974 0.030 0.974 0.030-0.152 0.013l620.528 0.079c0.729-0.049 0.729-0.049 2.286-0.116 43.75-1.601 99.937 11.617 154.604 53.038 0.393 0.298 0.393 0.298 0.786 0.598 31.484 24.034 51.701 63.509 64.251 113.945 10.95 44.005 14.46 87.896 14.252 120.195l-0.005 0.546-63.995-0.804c0.177-27.569-2.95-66.671-12.359-104.484-9.367-37.645-23.453-65.148-40.979-78.527l-0.603-0.458c-41.319-31.307-83.368-41.199-113.613-40.092-0.452 0.020-0.452 0.020-2.382 0.080l-624.4-0.041c-27.541-0.707-67.103 8.518-106.052 37.161zM550.962 238.999l-250.382 250.382c-13.821 13.821-13.821 36.255 0 50.076s36.255 13.821 50.076 0l190.19-190.19v539.045c0 19.43 15.724 35.154 35.154 35.154s35.179-15.749 35.154-35.154v-539.045l190.19 190.19c13.821 13.821 36.255 13.821 50.076 0s13.821-36.255 0-50.076l-250.382-250.382c-13.471-13.471-36.606-13.471-50.076 0z" />
<glyph unicode="&#xe906;" glyph-name="fa-selected" d="M385.28 36.288l616.96 660.16c13.495 14.712 21.765 34.406 21.765 56.032s-8.27 41.32-21.82 56.093l0.055-0.061c-13.118 14.438-31.969 23.466-52.928 23.466s-39.81-9.028-52.876-23.407l-0.052-0.059-564.032-603.52-204.8 219.136c-13.136 14.402-31.981 23.403-52.928 23.403s-39.792-9.001-52.877-23.347l-0.051-0.056c-13.45-14.754-21.687-34.463-21.687-56.096s8.237-41.342 21.747-56.162l-0.059 0.066 257.728-275.712c13.118-14.438 31.969-23.466 52.928-23.466s39.81 9.028 52.876 23.407l0.052 0.059z" />
<glyph unicode="&#xe907;" glyph-name="fa-question-circle" d="M512-64c-282.77 0-512 229.23-512 512s229.23 512 512 512c282.77 0 512-229.23 512-512s-229.23-512-512-512zM448 256v-128h128v128h-128zM395.361 735.97c-47.211-33.435-72.331-90.19-75.361-170.265h109.444c0 23.32 6.122 45.797 18.367 67.432s33.010 32.452 62.296 32.452c29.791 0 50.304-8.78 61.538-26.341s16.852-37.017 16.852-58.371c0-18.544-5.049-35.542-15.148-50.995-5.554-8.991-12.876-17.279-21.964-24.865l-27.645-24.023c-27.266-23.601-44.181-44.463-50.746-62.585s-10.604-50.925-12.118-98.408h102.249c0.252 22.477 1.893 39.054 4.923 49.731 4.797 16.858 14.517 31.609 29.16 44.252l26.888 23.18c27.266 23.601 45.696 42.988 55.29 58.16 16.41 25.006 24.615 55.772 24.615 92.297 0 59.565-18.872 104.519-56.615 134.864s-85.144 45.516-142.201 45.516c-43.424 0-80.031-10.677-109.822-32.030z" />
<glyph unicode="&#xe908;" glyph-name="selected_button" d="M512-64c-282.77 0-512 229.23-512 512s229.23 512 512 512c282.77 0 512-229.23 512-512s-229.23-512-512-512zM432.799 206.668l385.597 412.611c18.139 19.409 18.139 50.695 0 70.054-18.275 19.555-47.937 19.555-66.165 0l-352.515-377.211-127.991 136.957c-18.216 19.493-47.902 19.493-66.15 0.016-18.098-19.416-18.098-50.739-0.018-70.136l161.091-172.308c18.213-19.539 47.875-19.539 66.15 0.016z" />
<glyph unicode="&#xe909;" glyph-name="orders" horiz-adv-x="1169" d="M217.146 953.464c-1.089-3.268-50.111-133.991-109.299-291.949l-107.121-286.139v-437.197h1165.617v219.325l-0.363 218.962-108.936 290.496-109.299 290.496-109.662 0.726-109.662 0.363v-145.974h128.545l163.404-435.745-145.248-0.726-145.248-0.363-2.542-9.441c-1.452-4.721-8.715-33.77-15.977-63.546-7.626-30.139-14.525-58.826-15.977-63.546l-2.542-9.441h-218.235l-2.542 9.441c-1.452 4.721-8.715 33.77-15.977 63.546-7.262 30.139-14.525 58.826-15.977 63.546l-2.542 9.441-145.248 0.363-145.248 0.726 163.404 435.745h127.455v145.974h-218.235l-2.542-5.084zM515.268 814.026v-146.338l-90.78-0.363-91.143-0.726 254.911-254.911 126.729 126.729c69.719 69.719 126.729 127.455 126.729 128.182s-40.67 1.452-90.417 1.452h-90.417v146.338l-0.726 144.159h-145.248l0.363-144.522z" />
<glyph unicode="&#xe90a;" glyph-name="fa-tags" horiz-adv-x="1280" d="M69.2 951.2c-31.6-8.4-57.2-36.4-62.4-68-1.6-8-1.6-60-1.6-164 0.8-148.8 0.8-152.8 4.4-166.8 9.2-34.4 24.4-67.2 41.6-90 6-7.6 117.2-120.4 258-260.8 200.4-200.4 249.2-248 256-251.2 27.2-12.4 51.2-12 78 0.8 13.2 6.4 18.4 11.6 185.6 179.6 158 158.4 172.8 174 178.8 185.6 13.2 24.8 13.2 51.2 0.4 77.6-6.8 13.2-12 18.8-255.6 261.6-138 137.2-254 251.2-260 255.6-21.6 15.2-54.4 30-86 38.4-14 3.6-17.2 3.6-170.4 4.4-142 0-156.4 0-166.8-2.8zM241.2 823.2c14.8-4 26-10.4 38-22.8 12-12 18.8-23.2 22.8-38 5.2-20.8 2.4-45.6-7.6-63.6-6-11.2-23.2-28-34-34-25.2-13.6-58.8-13.2-83.6 0.4-11.6 6.8-27.2 22.4-33.2 33.6-13.2 24.4-13.2 58 0 82.4 6 11.2 23.2 28 34.4 34 18 10.4 42.8 13.2 63.2 8zM510 950.8c30.8-6.8 70-23.6 94-41.2 12.8-9.2 500-495.6 506.8-506.4 17.6-26 18.8-61.2 4-90.4-3.2-6.8-44.8-49.2-166-170.8l-161.6-162 8-8.4c10.8-10.8 28-23.2 37.6-26.4 10.8-4 30.8-5.2 43.6-2.8 6 1.2 16.8 4.8 24 8.4 13.2 6.4 18 11.6 185.6 179.6 94.8 95.2 173.6 175.6 176 178.4 6 8.8 11.2 25.2 12.4 38 1.6 16-1.6 30.4-9.2 46.8-6.4 13.2-12.4 19.2-255.2 261.2-138 137.2-254 251.2-260 255.6-15.2 11.2-42.8 24.4-64.4 31.6-30.4 10-44.4 11.6-122 11.2h-68.8l15.2-2.4z" />
<glyph unicode="&#xe90b;" glyph-name="sales_channels" d="M540.444 222.205v-62.234c49.073-12.631 85.333-57.177 85.333-110.193 0-62.838-50.94-113.778-113.778-113.778s-113.778 50.94-113.778 113.778c0 53.016 36.26 97.563 85.333 110.193v62.234c-67.596 8.429-125.985 46.506-161.743 100.808l-99.158-69.431c3.187-10.485 4.901-21.611 4.901-33.137 0-62.838-50.94-113.778-113.778-113.778s-113.778 50.94-113.778 113.778c0 62.838 50.94 113.778 113.778 113.778 30.751 0 58.652-12.199 79.129-32.022l103.59 72.534c-7.814 22.99-12.052 47.633-12.052 73.265 0 27.768 4.974 54.374 14.078 78.976l-101.47 71.050c-20.772-22.301-50.394-36.248-83.275-36.248-62.838 0-113.778 50.94-113.778 113.778s50.94 113.778 113.778 113.778c62.838 0 113.778-50.94 113.778-113.778 0-9.359-1.13-18.454-3.261-27.156l100.792-70.576c35.991 51.72 92.898 87.795 158.469 95.971v62.234c-49.073 12.631-85.333 57.177-85.333 110.193 0 62.838 50.94 113.778 113.778 113.778s113.778-50.94 113.778-113.778c0-53.016-36.26-97.563-85.333-110.193v-62.234c66.283-8.265 123.712-45.038 159.633-97.661l100.17 70.14c-2.481 9.343-3.803 19.158-3.803 29.281 0 62.838 50.94 113.778 113.778 113.778s113.778-50.94 113.778-113.778c0-62.838-50.94-113.778-113.778-113.778-32.134 0-61.157 13.321-81.847 34.743l-102.17-71.54c8.642-24.043 13.351-49.962 13.351-76.98 0-24.88-3.993-48.827-11.373-71.236l104.428-73.121c20.327 18.97 47.614 30.58 77.611 30.58 62.838 0 113.778-50.94 113.778-113.778s-50.94-113.778-113.778-113.778c-62.838 0-113.778 50.94-113.778 113.778 0 12.282 1.946 24.109 5.546 35.19l-98.682 69.098c-35.652-55.217-94.557-94.010-162.864-102.527zM910.222 618.667c31.419 0 56.889 25.47 56.889 56.889s-25.47 56.889-56.889 56.889c-31.419 0-56.889-25.47-56.889-56.889s25.47-56.889 56.889-56.889zM512-7.111c31.419 0 56.889 25.47 56.889 56.889s-25.47 56.889-56.889 56.889c-31.419 0-56.889-25.47-56.889-56.889s25.47-56.889 56.889-56.889zM512 789.333c31.419 0 56.889 25.47 56.889 56.889s-25.47 56.889-56.889 56.889c-31.419 0-56.889-25.47-56.889-56.889s25.47-56.889 56.889-56.889zM910.222 163.556c31.419 0 56.889 25.47 56.889 56.889s-25.47 56.889-56.889 56.889c-31.419 0-56.889-25.47-56.889-56.889s25.47-56.889 56.889-56.889zM113.778 618.667c31.419 0 56.889 25.47 56.889 56.889s-25.47 56.889-56.889 56.889c-31.419 0-56.889-25.47-56.889-56.889s25.47-56.889 56.889-56.889zM113.778 163.556c31.419 0 56.889 25.47 56.889 56.889s-25.47 56.889-56.889 56.889c-31.419 0-56.889-25.47-56.889-56.889s25.47-56.889 56.889-56.889z" />
<glyph unicode="&#xe90c;" glyph-name="fa-gift" horiz-adv-x="1166" d="M338.175 957.085c-24.051-2.551-49.925-12.39-71.789-27.331-23.322-15.67-48.831-45.187-59.764-70.332-18.949-41.907-19.678-94.383-1.458-137.384 16.763-40.45 57.942-78.713 100.578-93.29 9.11-3.28 29.517-7.288 38.263-8.017 2.915-0.364-68.874-0.729-159.613-1.093-163.621-0.729-165.079-0.729-169.088-4.009-2.186-1.822-5.466-5.102-7.288-7.288-3.28-4.009-3.28-5.102-3.28-134.104s0-129.731 3.28-134.104c1.822-2.186 5.102-5.466 7.288-7.288 4.009-2.915 6.559-3.28 44.823-3.644l40.814-0.364v-159.977c0-173.46 0-171.274 8.381-188.037 5.102-10.204 20.407-25.509 30.611-30.611 17.856-8.746-11.297-8.381 444.219-8.381 453.694 0 428.185-0.364 445.312 8.381 10.568 5.102 25.509 20.407 30.611 30.611 8.381 16.763 8.381 14.577 8.381 188.037v159.977l40.814 0.364c38.263 0.364 40.814 0.729 44.823 3.644 2.186 1.822 5.466 5.102 7.288 7.288 3.28 4.009 3.28 5.102 3.28 134.104s0 129.731-3.28 134.104c-1.822 2.186-5.102 5.466-7.288 7.288-4.009 3.28-5.466 3.28-169.816 4.009-91.103 0.364-160.342 1.093-153.782 1.822 64.137 5.831 124.994 59.035 141.392 122.807 12.754 49.925 2.915 104.951-25.873 143.579-29.517 38.992-68.51 62.315-115.154 68.51-40.814 5.466-83.451-3.644-113.697-24.051-18.221-12.026-30.611-26.238-82.357-93.29-26.967-34.984-49.56-63.772-49.925-63.772s-22.958 28.424-49.925 63.772c-26.967 34.984-54.298 68.51-60.128 74.705-34.255 34.255-82.357 49.56-136.655 43.365zM387.006 857.6c4.737-1.822 12.026-5.831 16.034-9.11 4.373-3.644 25.873-29.882 54.662-66.688 26.238-33.526 48.102-61.95 48.831-63.043 1.093-1.822-9.11-2.186-80.9-1.822-81.264 0.364-81.993 0.364-90.739 4.009-18.585 7.653-35.348 24.051-42.272 42.272-4.009 10.568-5.466 29.882-3.28 41.543 5.466 25.509 26.238 47.738 51.747 55.026 11.661 2.915 34.255 1.822 45.916-2.186zM834.141 857.6c18.585-7.288 35.348-23.687 42.272-42.272 4.737-12.026 5.466-31.34 2.551-44.094-6.559-25.873-29.153-47.738-54.298-52.84-5.102-1.093-34.255-1.458-85.273-1.458l-77.256 0.364 47.374 61.221c47.738 61.221 55.391 70.332 65.959 75.798 16.034 8.381 41.907 9.475 58.67 3.28zM705.503 345.964c0-211.359-0.364-275.496-1.822-280.233-2.915-9.839-13.848-19.678-26.602-23.687-10.204-2.915-12.754-3.28-96.569-2.551l-86.001 0.364-8.746 4.373c-9.839 4.737-18.221 13.483-20.407 22.229-1.458 4.373-1.822 76.162-1.822 279.869v274.038h241.97v-274.403z" />
<glyph unicode="&#xe90d;" glyph-name="fa-users" horiz-adv-x="1092" d="M194.56 955.221c-17.749-3.413-24.576-5.803-40.619-13.995-34.816-18.091-63.147-52.565-73.387-90.112-2.389-8.533-3.413-18.432-3.413-37.888 0-29.355 2.048-39.936 12.971-62.805 17.067-36.181 53.248-66.56 92.501-77.141 19.797-5.461 55.296-5.461 75.435 0 48.811 13.312 88.405 53.589 102.059 102.741 4.779 17.408 4.779 58.368 0.341 75.093-13.312 48.128-54.613 89.429-102.059 101.717-18.773 4.437-47.104 5.461-63.829 2.389zM850.944 955.563c-52.565-7.168-100.011-47.104-116.395-98.645-5.803-18.091-7.851-50.517-4.437-70.315 5.12-29.696 18.773-54.955 41.643-77.141 24.576-23.893 51.2-36.523 86.016-40.277 43.691-4.779 83.285 9.216 115.029 40.277 31.744 30.72 45.056 65.536 43.008 111.616-1.365 25.941-6.485 43.691-18.432 64.171-19.456 33.109-49.835 56.661-86.357 66.901-15.701 4.437-42.325 6.144-60.075 3.413zM519.168 810.837c-49.152-6.144-91.136-26.965-126.635-62.805-32.768-33.109-52.224-69.973-60.075-114.688-2.048-13.312-2.731-24.235-2.048-46.080 1.024-31.744 4.779-51.541 15.701-77.141 17.408-41.643 59.392-86.357 100.693-107.861 59.733-30.72 134.144-31.403 193.877-2.389 42.667 21.163 80.213 58.027 101.376 101.376 16.043 32.768 21.845 62.805 20.139 105.472-1.365 42.325-11.605 74.069-34.475 108.544-32.427 48.469-81.92 82.261-137.557 93.525-17.408 3.072-53.931 4.437-70.997 2.048zM61.781 666.112c-31.061-9.557-49.493-51.883-55.979-129.707-2.389-27.989-2.389-80.896 0.341-91.136 6.827-29.013 30.379-51.2 67.243-61.781 11.605-3.413 18.773-4.096 63.829-4.779l50.517-1.024 15.019 14.336c34.133 33.792 69.291 50.859 116.053 56.661 9.899 1.365 18.432 2.389 18.773 2.731s-2.731 6.144-7.168 12.971c-27.307 44.032-40.277 97.963-36.181 149.163 0.683 9.557 1.024 17.408 1.024 17.749-0.341 0.341-8.192-1.365-17.408-4.096-58.368-15.36-107.52-7.509-177.493 27.989-25.6 12.629-29.696 13.653-38.571 10.923zM997.376 656.896c-69.632-36.523-121.856-45.056-181.589-30.037-9.899 2.389-18.091 4.437-18.091 4.096-0.341-0.341 0.341-8.533 1.365-18.432 4.437-50.859-9.899-107.179-37.547-150.869-3.413-5.12-6.144-9.899-6.144-10.24s6.144-1.365 13.312-1.707c46.421-4.437 84.992-22.187 119.125-54.955l17.749-17.067 49.493 0.683c43.349 0.683 51.2 1.365 63.488 4.779 19.797 5.461 34.816 13.653 47.445 26.624 11.605 11.605 17.067 21.163 20.821 36.864 3.072 12.971 1.365 84.992-2.731 114.347-9.216 65.877-28.331 101.035-58.027 105.813-6.827 1.365-9.557 0.341-28.672-9.899zM319.829 412.501c-75.776-9.899-128-65.877-152.917-163.84-12.971-50.859-19.115-104.448-17.408-157.696 0.683-27.648 1.707-36.864 4.779-47.787 12.971-44.715 43.349-76.117 87.040-90.453 27.648-9.216 27.648-9.216 303.445-9.216 259.755 0 275.456 0.341 298.667 6.827 50.517 13.653 86.699 51.883 96.939 102.741 3.413 16.384 3.755 22.187 2.731 61.44-1.024 45.397-3.755 69.632-11.264 107.861-12.629 61.781-34.816 110.592-64.171 141.995-26.965 29.013-62.123 45.397-104.789 49.152-17.408 1.365-18.773 1.024-57.344-24.235-41.643-27.307-58.368-35.157-93.184-44.715-24.576-6.827-39.253-8.533-66.219-8.533-28.331 0-51.541 3.755-78.165 12.288-27.307 8.875-45.739 18.091-77.141 38.229-44.715 29.696-44.032 29.355-70.997 25.941z" />
<glyph unicode="&#xe90e;" glyph-name="contacts" horiz-adv-x="1179" d="M159.862 880.069v-78.089h-156.178v-341.456c0-374.239-0.368-360.978 15.471-398.918 24.311-58.567 78.089-102.4 141.445-115.292 18.049-3.683 73.301-4.052 517.894-4.052h497.635v1015.896h-1015.896v-78.089zM1097.669 449.842v-429.859l-928.599 1.105-19.522 9.577c-24.679 12.155-46.412 33.888-58.199 58.567l-8.472 17.681-0.737 308.305-0.368 307.937h78.089v-625.45h78.089v781.629h859.718v-429.491zM316.040 645.433v-156.178h312.357v312.357h-312.357v-156.178zM706.855 762.567v-39.045h312.357v78.089h-312.357v-39.045zM706.855 606.388v-39.045h312.357v78.089h-312.357v-39.045zM316.040 371.753v-39.045h703.54v78.089h-703.54v-39.045zM316.040 215.574v-39.045h625.45v78.089h-625.45v-39.045z" />
<glyph unicode="&#xe90f;" glyph-name="fa-puzzle-piece" horiz-adv-x="1085" d="M359.756 956.27c-14.241-2.034-40.35-10.511-51.2-16.615-18.31-10.511-32.89-24.752-42.045-40.35-9.155-15.258-12.546-31.534-12.207-55.269 0.339-35.603 8.477-59.677 33.568-98.331 8.477-12.885 17.971-28.482 21.023-34.925 5.086-10.511 5.764-12.885 5.764-28.143s-0.678-17.632-5.764-28.482c-7.799-15.936-24.752-33.568-38.654-40.35-6.103-3.052-16.954-6.781-23.735-8.477-18.31-4.069-67.136-3.391-111.555 1.356-32.551 3.391-122.744 16.275-128.17 18.649-2.374 0.678-2.713-40.35-2.713-331.613 0-315.338 0.339-332.63 3.052-333.309 4.408-1.356 96.975-14.58 123.423-17.632 12.885-1.356 40.011-3.052 60.694-3.73 42.723-1.356 58.321 1.017 77.987 10.172 15.258 7.121 30.517 23.396 39.332 41.028 6.103 12.207 6.442 14.241 6.442 27.804s-0.678 15.936-6.442 28.143c-3.391 7.46-12.885 22.718-20.344 34.246-23.396 34.925-32.212 60.016-33.907 93.584-1.695 36.281 6.442 58.999 28.821 81.377 15.258 15.258 35.942 27.126 58.999 33.229 12.546 3.391 18.988 4.069 42.384 4.069s29.838-0.678 41.367-4.069c34.246-9.833 61.033-30.856 72.562-57.642 6.442-14.919 8.816-27.126 8.816-46.792-0.339-21.701-3.391-35.264-13.224-54.591-8.138-15.936-10.172-19.327-25.77-38.654-44.419-54.93-42.723-115.285 4.069-136.985 34.246-15.936 71.544-15.936 197.679 0 30.177 3.73 61.372 6.781 68.832 6.781h13.902l-1.356 19.666c-0.678 10.511-3.052 29.499-5.425 42.045-10.172 52.895-12.885 72.223-12.885 91.55 0.339 53.234 20.344 77.987 65.78 80.36 33.229 1.695 50.861-6.103 99.348-44.079 10.172-7.799 36.281-20.344 49.844-23.735 13.224-3.391 40.35-3.73 53.913-1.017 28.482 5.764 53.913 26.787 67.815 55.608 11.189 23.057 13.902 35.603 13.902 63.746 0.339 38.654-9.155 67.475-29.499 93.584-28.482 36.281-76.97 47.131-130.882 29.16-19.666-6.442-29.16-11.528-53.574-27.804-11.189-7.46-25.77-15.936-31.873-19.327-10.85-5.086-13.224-5.764-28.143-5.764-15.258 0-17.632 0.678-28.482 5.764-15.936 7.799-33.568 24.752-40.35 38.654-8.816 17.293-11.189 32.212-11.189 67.136 0.339 43.062 5.086 89.515 16.954 163.772 3.052 20.005 5.764 36.281 5.425 36.281-1.356 1.017-49.505-4.408-139.698-15.258-22.379-2.713-41.028-3.73-70.188-3.73-37.298-0.339-40.689 0.339-52.895 4.069-38.993 12.207-55.608 34.925-53.234 72.562 1.695 25.43 11.528 46.792 36.62 77.987 14.919 18.649 26.787 41.706 31.195 60.355 2.374 9.833 3.052 16.954 2.034 32.89-1.356 30.856-8.477 47.47-27.804 67.136-14.241 14.241-33.568 25.091-54.252 30.517-16.615 4.408-46.792 5.764-64.085 3.391z" />
<glyph unicode="&#xe910;" glyph-name="fa-picture-o" horiz-adv-x="1280" d="M85.6 951.6c-36-7.6-67.6-37.6-79.2-74-3.2-10.4-3.2-28-3.2-432.8 0-404 0-422.8 3.2-432.8 10.4-33.6 39.2-62.8 72.8-72.8 10.4-3.2 32.8-3.2 560-3.2s550 0 560 3.2c23.6 7.2 44 22.4 58.4 43.2 9.6 14.4 14.8 27.6 17.2 46 1.2 9.2 1.6 155.2 1.2 426-0.4 382.8-0.8 413.2-3.6 422-12 38-43.2 67.6-80 75.2-18 4.4-1089.2 4-1106.8 0zM1181.2 866.8c2.8-1.6 6-5.2 7.6-7.6 2.8-4.8 2.8-38.4 2.8-414s0-409.6-2.8-414c-1.6-2.8-5.2-6-7.6-7.6-4.8-2.8-48-2.8-541.6-2.8s-536.8 0-541.6 2.8c-2.8 1.6-6 5.2-7.6 7.6-2.8 4.8-2.8 38.4-2.8 414 0 374.4 0 409.6 2.8 414 1.6 2.8 4.8 6 7.6 7.6 4.4 2.8 48.4 2.8 541.6 3.2 493.6-0.4 536.8-0.4 541.6-3.2zM284.8 791.6c-27.6-5.6-44.4-14.8-65.2-35.6-13.2-12.8-17.2-18.8-23.2-30.8-10.8-22-13.2-34-13.2-59.2 0.4-36.8 11.2-62.8 36.8-88.4s51.6-36.4 88.4-36.4c25.2 0 37.6 2.8 59.2 13.2 12 5.6 18 10.4 30 22.4 26.4 26.4 37.2 52 37.6 89.2 0 25.2-2.8 37.6-13.2 59.2-10.8 21.6-33.2 44-54.4 54.4-8.4 4-19.6 8.8-25.6 10-16 4-42.4 4.8-57.2 2zM667.6 518l-168.8-168.8-105.6 105.6-211.2-211.2v-126h930v295.2l-136.4 136.4c-75.2 75.2-137.2 136.8-138 137.2-0.8 0-77.2-75.6-170-168.4z" />
<glyph unicode="&#xe911;" glyph-name="fa-info-circle" d="M512 960c282.738 0 512-229.262 512-512 0-135.794-53.931-266.012-149.959-362.041s-226.247-149.959-362.041-149.959c-282.738 0-512 229.262-512 512s229.262 512 512 512zM512 881.209c-239.275 0-433.209-193.991-433.209-433.209 0-239.275 193.991-433.209 433.209-433.209 239.275 0 433.209 193.991 433.209 433.209 0 114.916-45.625 225.109-126.862 306.347s-191.431 126.862-306.347 126.862zM512 533.788c21.675 0 39.253-17.579 39.253-39.253v-298.61c0-21.618-17.579-39.253-39.253-39.253s-39.253 17.636-39.253 39.253v298.61c0 21.675 17.579 39.253 39.253 39.253zM512 684.544c21.675 0 39.253-17.579 39.253-39.253s-17.579-39.253-39.253-39.253c-21.675 0-39.253 17.579-39.253 39.253s17.579 39.253 39.253 39.253z" />
<glyph unicode="&#xe912;" glyph-name="fa-cog" d="M429.44 956.16c-6.72-1.92-12.16-8.32-14.72-17.28-2.56-9.28-11.52-62.4-15.040-89.6-4.48-37.12-3.2-33.28-14.080-37.12-5.44-1.6-18.88-7.040-29.44-11.84-10.88-4.8-20.48-8.64-21.12-8.64s-22.4 16.32-48.32 36.16c-25.92 19.84-48.96 37.12-51.52 38.080-8 3.2-14.080 1.92-24.64-4.8-26.56-17.28-103.68-95.36-113.92-115.52-6.72-13.12-5.12-16.96 20.48-48 19.52-23.68 52.48-67.52 52.48-69.76 0-0.96-3.52-9.28-7.68-18.24-4.16-9.28-9.92-22.72-12.8-30.4-2.56-7.68-5.44-13.76-6.080-13.76-2.56 0-119.68-17.92-123.52-18.88-6.4-1.92-14.4-12.16-15.68-20.48-0.64-4.16-0.96-41.28-0.64-82.88l0.64-75.2 4.16-5.76c2.24-2.88 5.44-6.4 7.040-7.36 1.92-0.96 31.36-5.76 65.92-10.88l62.72-9.28 5.44-16c4.16-12.48 15.68-39.040 21.12-48.96 0.64-0.96-18.24-25.92-52.16-69.44-20.48-26.24-22.080-29.44-21.12-40 1.28-12.8 9.28-22.72 59.52-72.64 52.8-52.48 59.52-58.24 69.76-58.24 9.28 0 10.88 0.96 63.36 40.96 23.68 17.92 44.16 33.28 45.12 33.92s8.64-1.6 16.96-5.44c8-3.52 21.44-8.96 29.76-12.16l15.040-5.76 10.24-65.28 9.92-65.28 5.76-4.8c3.2-2.56 8.96-5.44 12.8-5.76 4.16-0.64 41.6-0.96 83.2-0.64 84.16 0.64 82.56 0.32 88.32 11.84 4.48 8.64 11.52 49.28 21.44 123.2 0.96 7.040 1.28 7.36 12.8 11.2 6.4 2.24 19.52 7.68 28.8 11.52 9.28 4.16 17.92 7.68 19.2 7.68 0.96 0 22.080-15.68 46.4-34.88 24.64-19.2 47.36-36.16 50.88-38.080 12.48-6.4 20.48-3.52 44.48 16.32 25.92 21.44 75.84 72.96 93.76 97.28 7.68 10.24 8.96 18.24 4.48 26.88-1.28 2.56-10.56 14.72-20.16 26.56-9.6 12.16-25.92 32.96-36.16 46.4l-18.56 24.64 5.76 11.52c3.2 6.4 8.96 20.16 13.12 30.4l7.36 18.88 24.96 3.84c110.4 16.96 101.76 15.36 107.52 20.8 2.88 2.56 6.080 8 7.040 11.52 0.96 4.16 1.6 35.2 1.28 84.16l-0.64 77.44-4.16 5.76c-2.24 2.88-5.44 6.4-7.36 7.36-1.6 0.96-29.76 5.76-62.4 10.56-32.32 4.8-60.8 9.28-62.72 9.92-2.88 0.64-5.12 4.48-9.28 16.96-3.2 8.64-9.28 23.040-13.76 31.68-5.76 11.84-7.36 16.96-6.080 19.2 0.96 1.6 15.36 20.48 32 41.92 39.68 51.2 40.64 52.48 40.64 62.72 0 7.36-1.28 9.92-8.96 20.48-10.56 14.080-99.2 103.040-108.16 108.48-6.4 3.84-17.92 4.48-23.68 1.28-1.92-1.28-24.32-17.6-49.6-36.8-25.28-18.88-46.72-34.88-48-35.84-0.96-0.64-7.36 1.28-14.080 4.16-6.4 2.88-19.84 8.64-29.76 12.16l-17.6 7.040-9.6 64.64c-10.56 69.44-11.2 71.68-23.040 75.84-7.36 2.24-156.8 2.88-165.44 0.32zM558.4 612.48c30.4-8.96 52.8-22.72 75.84-46.4 21.76-22.4 33.92-43.52 42.56-74.56 3.52-11.84 4.16-17.92 3.84-42.88 0-31.68-2.56-45.12-12.48-67.84-10.88-24.64-32.96-51.84-56-69.76-13.76-10.56-38.72-22.4-56.64-27.52-20.48-5.44-66.24-5.44-86.4 0-29.44 8-51.52 20.8-74.88 43.2-32.96 31.68-49.28 67.84-51.52 113.6-2.24 48.96 12.48 88.64 45.44 123.52 22.72 24.32 45.44 38.4 73.6 47.36 19.84 6.080 27.84 7.040 55.36 6.4 21.44-0.32 28.48-1.28 41.28-5.12z" />
<glyph unicode="&#xe913;" glyph-name="plus" d="M469.479 490.549v170.561c0 23.622 18.938 42.772 42.667 42.772 23.564 0 42.667-19.446 42.667-42.772v-170.561h199.019c23.615 0 42.759-18.938 42.759-42.667 0-23.564-18.928-42.667-42.759-42.667h-199.019v-170.561c0-23.622-18.938-42.772-42.667-42.772-23.564 0-42.667 19.446-42.667 42.772v170.561h-199.019c-23.615 0-42.759 18.938-42.759 42.667 0 23.564 18.928 42.667 42.759 42.667h199.019zM0.146 618.905v-342.046c0-187.674 152.661-340.977 340.977-340.977h342.046c187.674 0 340.977 152.661 340.977 340.977v342.046c0 187.674-152.661 340.977-340.977 340.977h-342.046c-187.674 0-340.977-152.661-340.977-340.977zM57.035 618.737c0 156.99 127.521 284.256 284.256 284.256h341.71c156.99 0 284.256-127.521 284.256-284.256v-341.71c0-156.99-127.521-284.256-284.256-284.256h-341.71c-156.99 0-284.256 127.521-284.256 284.256v341.71z" />
<glyph unicode="&#xe914;" glyph-name="fa-cog-2" d="M223.061 861.127c4.437-1.934 5.234-2.958 6.428-3.982 20.423-19.911 41.415-39.083 63.147-57.628 0 0-7.623-7.054 14.222 5.575 34.475 19.627 71.452 34.304 109.966 43.577l1.593 0.398c2.389 29.298 3.755 58.596 4.096 88.007 0 0 2.901 15.872 19.968 18.204 6.94 0.967 13.881 1.707 20.821 2.446 40.107 3.812 80.612 2.844 120.604-2.788 0 0 16.327-2.389 17.636-17.863 0.341-28.558 1.65-56.946 3.868-85.333 0 0-10.354 0.341 14.052-6.144 38.343-10.524 74.923-26.396 108.544-46.933l1.422-0.91c22.357 19.058 44.089 38.855 65.138 59.392 0 0 12.231 11.036 39.822-11.321 31.289-25.372 59.62-54.5 84.082-86.471 5.404-6.997 10.923-19.001 2.674-28.786-19.911-20.48-39.14-41.472-57.628-63.147 0 0-7.054 7.623 5.632-14.222 19.627-34.475 34.247-71.396 43.577-109.966l0.341-1.65c29.298-2.276 58.596-3.698 88.064-4.096 0 0 15.417 1.138 18.773-24.576 5.518-43.804 5.518-88.348-0.284-132.096-1.138-8.875-5.689-21.22-18.489-22.3-4.267 0-8.533-0.114-12.743-0.228-24.235-0.569-48.469-1.707-72.647-3.641 0 0 0.341 10.354-6.144-14.052-10.468-38.229-26.226-74.752-46.933-108.601l-0.853-1.365c19.001-22.414 38.798-44.089 59.335-65.138 0 0 11.036-12.231-11.321-39.822-26.34-32.54-56.491-61.611-90.112-86.926-18.432-13.881-38.116 13.084-59.733 32.711-12.516 11.321-30.549 26.795-30.549 26.795l-5.689-3.47c-36.352-21.618-75.548-37.547-116.508-47.445l-1.593-0.341c-2.389-29.298-3.755-58.652-4.096-88.064 0 0-2.901-15.815-19.968-18.204-6.94-0.91-13.881-1.707-20.821-2.389-40.107-3.868-80.612-2.844-120.604 2.731 0 0-16.327 2.446-17.636 17.863 0 4.267-0.114 8.476-0.171 12.686-0.569 24.292-1.82 48.526-3.698 72.704 0 0 10.354-0.398-14.052 6.144-38.286 10.468-74.809 26.283-108.544 46.933l-1.422 0.853c-22.357-19.058-44.089-38.855-65.138-59.335 0 0-13.255-9.159-27.022 1.252-37.547 28.501-71.168 62.407-99.669 100.124 0 0-9.899 13.312 0.114 25.202 19.911 20.48 39.14 41.472 57.628 63.147 0 0 7.054-7.623-5.632 14.222-19.57 34.418-34.247 71.452-43.577 109.966l-0.341 1.593c-29.298 2.389-58.652 3.698-88.064 4.096 0 0-16.441 0.796-20.139 36.181-4.38 41.7-3.641 83.456 2.276 125.156 3.243 22.699 36.181 17.636 65.365 19.115 16.839 0.853 40.562 2.617 40.562 2.617l1.593 6.542c10.354 40.903 26.795 79.929 48.811 115.883l0.853 1.422c-19.001 22.357-38.798 44.089-59.335 65.138 0 0-9.159 13.255 1.252 26.965 28.046 36.978 61.269 70.087 98.304 98.361 0 0 7.054 9.102 20.594 5.234zM509.952 903.111c-15.815-0.114-31.687-1.024-47.445-2.674l-1.991-0.228-0.398-13.084c-0.853-24.576 0.853-49.778-4.836-73.785-3.584-15.019-28.843-15.758-47.616-21.504-33.792-10.24-65.877-25.6-95.346-45.113 0 0-10.069-6.372-20.48 1.138-21.504 17.92-42.439 36.523-62.748 55.808l-0.455 0.455c-25.828-20.594-49.38-43.975-70.258-69.632l-2.56-3.129c20.025-20.992 42.553-40.676 57.685-65.195 8.135-13.084-9.102-31.403-18.489-48.868-16.612-31.061-28.444-64.626-35.499-99.271 0 0-2.56-11.662-15.303-13.71-27.876-2.56-55.865-4.153-83.797-4.892h-0.683c-3.641-32.825-3.812-65.991-0.398-98.873l0.398-4.096c29.013-0.626 58.88 1.365 86.926-5.234 14.62-3.47 15.588-27.932 20.821-45.511 10.24-34.475 25.771-67.413 45.739-97.451 0 0 6.428-10.069-1.138-20.48-17.92-21.504-36.523-42.439-55.808-62.748l-0.455-0.455c20.594-25.828 43.975-49.38 69.632-70.258l3.186-2.56c20.935 20.025 40.619 42.61 65.138 57.742 13.141 8.078 31.46-9.216 48.868-18.489 31.061-16.612 64.626-28.558 99.328-35.556 0 0 11.605-2.56 13.653-15.246 2.56-27.876 4.153-55.865 4.892-83.854v-0.626c32.825-3.698 65.991-3.868 98.93-0.455l4.039 0.455c0.683 29.013-1.365 58.823 5.291 86.869 3.527 15.019 28.729 15.758 47.559 21.447 33.792 10.24 65.934 25.6 95.346 45.113 0 0 10.069 6.428 20.48-1.138 21.618-17.92 42.496-36.523 62.748-55.808l0.455-0.455c25.884 20.651 49.436 44.032 70.258 69.632l2.56 3.186c-20.025 20.935-42.553 40.619-57.685 65.138-8.135 13.141 9.102 31.403 18.489 48.868 16.612 31.061 28.444 64.626 35.499 99.328 0 0 2.56 11.605 15.303 13.653 27.819 2.56 55.751 4.153 83.797 4.892h0.683c3.641 32.825 3.812 65.991 0.398 98.93l-0.398 4.039c-29.013 0.683-58.88-1.365-86.926 5.291-15.417 3.641-16.1 30.265-22.073 49.721-4.38 13.995-9.557 27.762-15.588 41.131-8.192 18.091-17.863 35.499-28.9 52.053 0 0-6.428 10.069 1.138 20.537 17.92 21.504 36.523 42.382 55.808 62.692l0.455 0.512c-20.594 25.771-43.975 49.323-69.632 70.201l-3.186 2.56c-20.935-20.025-40.619-42.553-65.138-57.685-12.8-7.908-30.72 8.647-46.933 17.408-13.54 7.396-27.534 13.824-41.927 19.399-19.228 7.396-39.083 13.084-59.278 17.18 0 0-11.662 2.56-13.71 15.303l-1.138 12.345c-1.877 23.78-3.129 47.616-3.755 71.452 0 0-26.567 3.641-53.532 3.584zM512.398 675.556c104.676-1.024 203.435-81.18 223.46-185.173 19.513-101.66-39.879-213.049-135.851-253.497-106.667-45.056-244.565 5.973-295.538 111.388-65.138 134.656 35.385 323.527 202.012 327.225l5.916 0.057zM510.976 618.667c-96.654-0.91-181.988-95.915-168.164-194.56 11.321-80.782 88.121-147.342 170.382-146.773 99.897 0.626 187.164 103.538 166.343 205.028-15.588 76.174-88.064 136.533-168.562 136.306z" />
<glyph unicode="&#xe915;" glyph-name="alert-icon" horiz-adv-x="1317" d="M618.862 925.257c39.278 20.334 88.43 8.192 113.371-29.55l542.72-819.2c9.509-14.336 14.629-31.232 14.629-48.421 0-48.494-39.351-87.771-87.771-87.771h-1085.513c-17.189 0-34.085 5.12-48.421 14.629-40.448 26.697-51.493 81.189-24.722 121.563l542.72 819.2c6.437 9.801 14.848 18.286 24.649 24.722zM659.090 847.287l-542.72-819.2h1085.44l-542.72 819.2zM658.286 210.578c25.161 0 45.568-20.48 45.568-45.568 0-25.161-20.407-45.568-45.568-45.568s-45.568 20.407-45.568 45.568 20.407 45.568 45.568 45.568zM658.286 628.224c21.797 0 39.936-15.945 43.301-36.791l0.585-7.168v-291.401c0-24.283-19.675-43.886-43.886-43.886-21.797 0-39.936 15.872-43.301 36.718l-0.585 7.241v291.328c0 24.283 19.675 43.886 43.886 43.886z" />
<glyph unicode="&#xf900;" glyph-name="fa-power-off" horiz-adv-x="960" d="M480 72.512c189.376 0 342.848 152.832 342.848 341.376 0 0.025 0 0.054 0 0.083 0 111.4-53.53 210.297-136.272 272.373l-0.88 0.632v158.72c163.277-78.163 274.087-241.987 274.304-431.715v-0.029c0-264-214.912-477.952-480-477.952s-480 213.952-480 477.888c0.164 189.807 110.989 353.69 271.431 430.631l2.873 1.241v-158.784c-83.622-62.708-137.152-161.605-137.152-273.005 0-0.029 0-0.058 0-0.088v0.005c0-188.544 153.472-341.376 342.848-341.376zM480 413.888c-0.114-0.001-0.249-0.001-0.384-0.001-37.599 0-68.088 30.444-68.16 68.026v410.055c1.631 36.595 31.695 65.645 68.544 65.645s66.913-29.051 68.539-65.499l0.005-0.147v-410.048c0-37.12-30.72-68.032-68.544-68.032z" />
</font>
</defs>
</svg>
